website statistics
Monster.Hunter.2020.iTA-ENG.Bluray.2160p.HDR.x265-CYBER.mkv > 영화 > 대한민국 No.1 바다보아

팝업레이어 알림

 [구글검색] 구글에서 바다보아 검색 - 구글에서 토렌트를 검색하실 때에 검색어 뒤에 바다보아를 꼭 붙여서 검색하세요.     바다보아에서 광고중인 웹에 문제가 있다면 상단에 나와 있는 운영자 이메일로 연락 주십시오.     사용자님의 다운로드가 완료될 때까지 저희가 함께하겠습니다. 편안하고 즐거운 시간 되십시오.

웹하드 파일몽

  

  

  

Monster.Hunter.2020.iTA-ENG.Bluray.2160p.HDR.x265-CYBER.mkv

pSDQ4h.jpg


DATI - TRAMA

Genere: Azione, Fantasy
Anno: 2020
Regia: Paul W.S. Anderson
Attori: Milla Jovovich, Tony Jaa, T.I., Diego Boneta, Josh Helman, Ron Perlman
Paese: Cina, Germania, Giappone, USA
Distribuzione: Warner Bros. Entertainment Italia
Sceneggiatura: Paul W.S. Anderson


Monster Hunter, il film diretto da Paul W.S. Anderson, è basato sullomonima serie di videogiochi e segue le avventure del tenente Artemis (Milla Jovovich) e dei suoi soldati. La squadra speciale si ritrova ad attraversare un portale spazio-temporale, che li catapulta in un altro mondo diverso dal nostro, in cui vivono enormi e terribili creature. Per tornare sul nostro pianeta, Artemis e i suoi combattenti dovranno affrontare e lottare contro questi potenti mostri, ma limpresa si rivelerà davvero ardua.
Sul loro cammino incontreranno un cacciatore (Tony Jaa), dotato di grandi abilità, grazie alle quali riesce a sopravvivere in un mondo in cui lessere umano sembra destinato a soccombere..

IMMAGINI




pSDQ4h.jpg


DATI - TRAMA

Genere: Azione, Fantasy
Anno: 2020
Regia: Paul W.S. Anderson
Attori: Milla Jovovich, Tony Jaa, T.I., Diego Boneta, Josh Helman, Ron Perlman
Paese: Cina, Germania, Giappone, USA
Distribuzione: Warner Bros. Entertainment Italia
Sceneggiatura: Paul W.S. Anderson


Monster Hunter, il film diretto da Paul W.S. Anderson, è basato sullomonima serie di videogiochi e segue le avventure del tenente Artemis (Milla Jovovich) e dei suoi soldati. La squadra speciale si ritrova ad attraversare un portale spazio-temporale, che li catapulta in un altro mondo diverso dal nostro, in cui vivono enormi e terribili creature. Per tornare sul nostro pianeta, Artemis e i suoi combattenti dovranno affrontare e lottare contro questi potenti mostri, ma limpresa si rivelerà davvero ardua.
Sul loro cammino incontreranno un cacciatore (Tony Jaa), dotato di grandi abilità, grazie alle quali riesce a sopravvivere in un mondo in cui lessere umano sembra destinato a soccombere..

IMMAGINI






REPORT

General
Unique ID : 28423033242842388872237076015167054896 (0x156213BBBAAD6F92D080B4D7E5EC2430)
Complete name : F:\Monster.Hunter.2020.iTA-ENG.Bluray.2160p.HDR.x265-CYBER.mkv
Format : Matroska
Format version : Version 2
File size : 19.6 GiB
Duration : 1 h 43 min
Overall bit rate mode : Variable
Overall bit rate : 27.1 Mb/s
Movie name : "ENJOY"
Encoded date : UTC 2021-04-06 16:46:16
Writing application : mkvmerge v45.0.0 (Heaven in Pennies) 64-bit
Writing library : libebml v1.3.10 + libmatroska v1.5.2

Video
ID : 1
Format : HEVC
Format/Info : High Efficiency Video Coding
Format profile : Main [email protected]@High
HDR format : SMPTE ST 2086, HDR10 compatible
Codec ID : V_MPEGH/ISO/HEVC
Duration : 1 h 43 min
Bit rate : 22.6 Mb/s
Width : 3 840 pixels
Height : 1 604 pixels
Display aspect ratio : 2.40:1
Frame rate mode : Constant
Frame rate : 23.976 (24000/1001) FPS
Color space : YUV
Chroma subsampling : 4:2:0 (Type 2)
Bit depth : 10 bits
Bits/(Pixel*Frame) : 0.153
Stream size : 16.2 GiB (83%)
Title : 2160p
Writing library : x265 3.4+36-5239276dd:[Windows][GCC 10.2.1][64 bit] 10bit
Encoding settings : cpuid=1111039 / frame-threads=4 / numa-pools=24 / wpp / no-pmode / no-pme / no-psnr / no-ssim / log-level=2 / input-csp=1 / input-res=3840x1604 / interlace=0 / total-frames=148368 / level-idc=51 / high-tier=1 / uhd-bd=0 / ref=4 / no-allow-non-conformance / repeat-headers / annexb / aud / no-hrd / info / hash=0 / no-temporal-layers / open-gop / min-keyint=23 / keyint=250 / gop-lookahead=0 / bframes=8 / b-adapt=2 / b-pyramid / bframe-bias=0 / rc-lookahead=40 / lookahead-slices=4 / scenecut=40 / hist-scenecut=0 / radl=0 / no-splice / no-intra-refresh / ctu=64 / min-cu-size=8 / no-rect / no-amp / max-tu-size=32 / tu-inter-depth=4 / tu-intra-depth=4 / limit-tu=4 / rdoq-level=2 / dynamic-rd=0.00 / no-ssim-rd / signhide / no-tskip / nr-intra=0 / nr-inter=0 / no-constrained-intra / strong-intra-smoothing / max-merge=4 / limit-refs=1 / limit-modes / me=3 / subme=5 / merange=57 / temporal-mvp / no-frame-dup / no-hme / weightp / no-weightb / no-analyze-src-pics / deblock=0:0 / no-sao / no-sao-non-deblock / rd=4 / selective-sao=0 / no-early-skip / rskip / no-fast-intra / no-tskip-fast / no-cu-lossless / no-b-intra / no-splitrd-skip / rdpenalty=0 / psy-rd=2.00 / psy-rdoq=1.00 / no-rd-refine / no-lossless / cbqpoffs=-2 / crqpoffs=-2 / rc=crf / crf=18.3 / qcomp=0.60 / qpstep=4 / stats-write=0 / stats-read=0 / vbv-maxrate=160000 / vbv-bufsize=160000 / vbv-init=0.9 / min-vbv-fullness=50.0 / max-vbv-fullness=80.0 / crf-max=0.0 / crf-min=0.0 / ipratio=1.40 / pbratio=1.30 / aq-mode=1 / aq-strength=0.90 / no-cutree / zone-count=0 / no-strict-cbr / qg-size=32 / no-rc-grain / qpmax=69 / qpmin=0 / no-const-vbv / sar=0 / overscan=0 / videoformat=5 / range=0 / colorprim=9 / transfer=16 / colormatrix=9 / chromaloc=1 / chromaloc-top=2 / chromaloc-bottom=2 / display-window=0 / master-display=G(13250,34500)B(7500,3000)R(34000,16000)WP(15635,16450)L(40000000,50) / cll=1636,278 / min-luma=0 / max-luma=1023 / log2-max-poc-lsb=8 / vui-timing-info / vui-hrd-info / slices=1 / no-opt-qp-pps / no-opt-ref-list-length-pps / no-multi-pass-opt-rps / scenecut-bias=0.05 / hist-threshold=0.03 / no-opt-cu-delta-qp / no-aq-motion / hdr10 / hdr10-opt / no-dhdr10-opt / no-idr-recovery-sei / analysis-reuse-level=0 / analysis-save-reuse-level=0 / analysis-load-reuse-level=0 / scale-factor=0 / refine-intra=0 / refine-inter=0 / refine-mv=1 / refine-ctu-distortion=0 / no-limit-sao / ctu-info=0 / no-lowpass-dct / refine-analysis-type=0 / copy-pic=1 / max-ausize-factor=1.0 / no-dynamic-refine / no-single-sei / no-hevc-aq / no-svt / no-field / qp-adaptation-range=1.00 / scenecut-aware-qp=0conformance-window-offsets / right=0 / bottom=0 / decoder-max-rate=0 / no-vbv-live-multi-pass
Language : English
Default : Yes
Forced : No
Color range : Limited
Color primaries : BT.2020
Transfer characteristics : PQ
Matrix coefficients : BT.2020 non-constant
Mastering display color primaries : Display P3
Mastering display luminance : min: 0.0050 cd/m2, max: 4000 cd/m2
Maximum Content Light Level : 1636 cd/m2
Maximum Frame-Average Light Level : 278 cd/m2

Audio #1
ID : 2
Format : DTS XLL
Format/Info : Digital Theater Systems
Commercial name : DTS-HD Master Audio
Codec ID : A_DTS
Duration : 1 h 43 min
Bit rate mode : Variable
Bit rate : 2 437 kb/s
Channel(s) : 6 channels
Channel layout : C L R Ls Rs LFE
Sampling rate : 48.0 kHz
Frame rate : 93.750 FPS (512 SPF)
Bit depth : 16 bits
Compression mode : Lossless
Stream size : 1.76 GiB (9%)
Title : DTS-HD MA
Language : Italian
Default : Yes
Forced : No

Audio #2
ID : 3
Format : AC-3
Format/Info : Audio Coding 3
Commercial name : Dolby Digital
Codec ID : A_AC3
Duration : 1 h 43 min
Bit rate mode : Constant
Bit rate : 640 kb/s
Channel(s) : 6 channels
Channel layout : L R C LFE Ls Rs
Sampling rate : 48.0 kHz
Frame rate : 31.250 FPS (1536 SPF)
Compression mode : Lossy
Stream size : 472 MiB (2%)
Language : Italian
Service kind : Complete Main
Default : No
Forced : No

Audio #3
ID : 4
Format : DTS
Format/Info : Digital Theater Systems
Codec ID : A_DTS
Duration : 1 h 43 min
Bit rate mode : Constant
Bit rate : 1 509 kb/s
Channel(s) : 6 channels
Channel layout : C L R Ls Rs LFE
Sampling rate : 48.0 kHz
Frame rate : 93.750 FPS (512 SPF)
Bit depth : 16 bits
Compression mode : Lossy
Stream size : 1.09 GiB (6%)
Language : English
Default : No
Forced : No

Text #1
ID : 5
Format : UTF-8
Codec ID : S_TEXT/UTF8
Codec ID/Info : UTF-8 Plain Text
Duration : 48 min 19 s
Bit rate : 2 b/s
Count of elements : 22
Stream size : 1.00 KiB (0%)
Title : FORCED
Language : Italian
Default : Yes
Forced : No

Text #2
ID : 6
Format : UTF-8
Codec ID : S_TEXT/UTF8
Codec ID/Info : UTF-8 Plain Text
Duration : 1 h 41 min
Bit rate : 16 b/s
Count of elements : 475
Stream size : 12.1 KiB (0%)
Title : REGOLARI
Language : Italian
Default : No
Forced : No

Text #3
ID : 7
Format : UTF-8
Codec ID : S_TEXT/UTF8
Codec ID/Info : UTF-8 Plain Text
Duration : 1 h 35 min
Bit rate : 26 b/s
Count of elements : 819
Stream size : 18.9 KiB (0%)
Title : NON UDENTI
Language : English
Default : No
Forced : No

Menu
00:00:00.000 : :Chapter 01
00:04:59.424 : :Chapter 02
00:10:28.211 : :Chapter 03
00:15:26.342 : :Chapter 04
00:21:12.938 : :Chapter 05
00:24:53.492 : :Chapter 06
00:31:53.328 : :Chapter 07
00:35:58.698 : :Chapter 08
00:41:10.301 : :Chapter 09
00:48:05.007 : :Chapter 10
00:54:10.080 : :Chapter 11
01:01:36.109 : :Chapter 12
01:06:18.516 : :Chapter 13
01:13:21.689 : :Chapter 14
01:23:01.727 : :Chapter 15
01:31:21.601 : :Chapter 16
01:35:39.734 : :Chapter 17

GOOD DOWNLOAD

Monster.Hunter.2020.iTA-ENG.Bluray.2160p.HDR.x265-CYBER.mkv
번역하기: 한국 한국어


<< 이 게시판에서 관련된 자료 목록 >>
 [구글검색] 구글에서 바다보아 검색 - 구글에서 토렌트를 검색하실 때에 검색어 뒤에 바다보아를 꼭 붙여서 검색하세요.     바다보아에서 광고중인 웹에 문제가 있다면 상단에 나와 있는 운영자 이메일로 연락 주십시오.     사용자님의 다운로드가 완료될 때까지 저희가 함께하겠습니다. 편안하고 즐거운 시간 되십시오.

웹하드 파일썬

  

  

  

IMFORMATION STORE

상단으로 가운데로 하단으로