website statistics
MasterChef (UK) S17E16 (1280x고화질 HD, 50fps, soft Eng subs) > 외국티비 > 대한민국 No.1 바다보아

팝업레이어 알림

 [구글검색] 구글에서 바다보아 검색 - 구글에서 토렌트를 검색하실 때에 검색어 뒤에 바다보아를 꼭 붙여서 검색하세요.     바다보아에서 광고중인 웹에 문제가 있다면 상단에 나와 있는 운영자 이메일로 연락 주십시오.     사용자님의 다운로드가 완료될 때까지 저희가 함께하겠습니다. 편안하고 즐거운 시간 되십시오.

웹하드 파일마루

  

  

  

MasterChef (UK) S17E16 (1280x고화질 HD, 50fps, soft Eng subs)

MasterChef (UK) S17E16 (1280x고화질 HD, 50fps, soft Eng subs)

Its finals week. Over the past five weeks, 40 of the countrys very best amateur cooks have been whittled down to just five. Each talented cook has a single goal: to lift the coveted MasterChef trophy. / / This week, the finalists face some incredible challenges, testing their ambition, creativity, skill and perseverance as they go all out to impress and raise their cooking to a level they never dreamed possible. At the end of this week, one will walk away the MasterChef champion. / / In the first challenge of the finals, the five cooks face their most daunting challenge yet: cooking a five-course lunch at the resplendent Plaisterers Hall in the City of London. / / The diners are 20 lockdown food heroes - members of the hospitality sector who, during the first lockdown of the pandemic, delivered thousands of meals to frontline workers and those most in need. John Torode oversees the kitchen, as the amateurs face a high-pressured lunchtime service. The hero diners include leading chefs and restaurateurs Adam Handling, Francesco Mazzei and Ravinder Bhogal. / / The contestants must each serve one dish of their own creation, inspired by their own lockdown experience. Under Johns watchful eye, they are challenged like never before to deliver dishes of an exceptional standard. / / Then its back to the MasterChef kitchen, where, for a place in the final four, all five cooks must create one plate of food inspired by someone they admire. They have one hour and 45 minutes to impress judges John Torode and Gregg Wallace. After this challenge, one cook will be leaving the competition.

First broadcast: 5 April 2021
Duration: 1 hour

Torrent dead? Request reseed at torrentgalaxy.org - or ask at elsonroa at tutanota.com

Media info:-
General
Format : MPEG-4
Format profile : Base Media
Codec ID : isom (isom/iso2/avc1/mp41)
File size : 2.07 GiB
Duration : 58mn 38s
Overall bit rate mode : Variable
Overall bit rate : 5 065 Kbps


Video
ID : 1
Format : AVC
Format/Info : Advanced Video Codec
Format profile : [email protected]
Format settings, CABAC : Yes
Format settings, ReFrames : 4 frames
Codec ID : avc1
Codec ID/Info : Advanced Video Coding
Duration : 58mn 38s
Bit rate : 4 930 Kbps
Width : 1 280 pixels
Height : 720 pixels
Display aspect ratio : 16:9
Frame rate mode : Constant
Frame rate : 50.000 fps
Color space : YUV
Chroma subsampling : 4:2:0
Bit depth : 8 bits
Scan type : Progressive
Bits/(Pixel*Frame) : 0.107
Stream size : 2.02 GiB (97%)
Encoded date : UTC 1904-01-01 00:00:00
Tagged date : UTC 1904-01-01 00:00:00
Color range : Limited
Color primaries : BT.709
Transfer characteristics : BT.709
Matrix coefficients : BT.709

Audio
ID : 2
Format : AAC
Format/Info : Advanced Audio Codec
Format profile : LC
Codec ID : 40
Duration : 58mn 38s
Bit rate mode : Variable
Bit rate : 129 Kbps
Channel(s) : 2 channels
Channel positions : Front: L R
Sampling rate : 48.0 KHz
Frame rate : 46.875 fps (1024 spf)
Compression mode : Lossy
Stream size : 53.7 MiB (3%)

MasterChef (UK) S17E16 (1280x고화질 HD, 50fps, soft Eng subs)
번역하기: 한국 한국어


<< 이 게시판에서 관련된 자료 목록 >>
 [구글검색] 구글에서 바다보아 검색 - 구글에서 토렌트를 검색하실 때에 검색어 뒤에 바다보아를 꼭 붙여서 검색하세요.     바다보아에서 광고중인 웹에 문제가 있다면 상단에 나와 있는 운영자 이메일로 연락 주십시오.     사용자님의 다운로드가 완료될 때까지 저희가 함께하겠습니다. 편안하고 즐거운 시간 되십시오.

웹하드 파일썬

  

  

  

IMFORMATION STORE

상단으로 가운데로 하단으로