website statistics
Clarice.S01E04.초고화질.WEB.H264-GLHF > 외국티비 > 대한민국 No.1 바다보아

팝업레이어 알림

 [구글검색] 구글에서 바다보아 검색 - 구글에서 토렌트를 검색하실 때에 검색어 뒤에 바다보아를 꼭 붙여서 검색하세요.     바다보아에서 광고중인 웹에 문제가 있다면 상단에 나와 있는 운영자 이메일로 연락 주십시오.     사용자님의 다운로드가 완료될 때까지 저희가 함께하겠습니다. 편안하고 즐거운 시간 되십시오.

웹하드 파일마루

  

  

  

Clarice.S01E04.초고화질.WEB.H264-GLHF

71030895814027478304.jpg

71030895814027478304.jpg


Video
ID : 1
Format : AVC
Format/Info : Advanced Video Codec
Format profile : [email protected]
Format settings : CABAC / 4 Ref Frames
Format settings, CABAC : Yes
Format settings, Reference frames : 4 frames
Codec ID : V_MPEG4/ISO/AVC
Duration : 41 min 37 s
Bit rate mode : Constant
Bit rate : 6 601 kb/s
Nominal bit rate : 10 000 kb/s
Width : 1 920 pixels
Height : 1 080 pixels
Display aspect ratio : 16:9
Frame rate mode : Constant
Frame rate : 24.000 FPS
Color space : YUV
Chroma subsampling : 4:2:0
Bit depth : 8 bits
Scan type : Progressive
Bits/(Pixel*Frame) : 0.133
Stream size : 1.92 GiB (89%)
Default : Yes
Forced : No
Color range : Limited
Color primaries : BT.709
Transfer characteristics : BT.709
Matrix coefficients : BT.709

Audio
ID : 2
Format : E-AC-3
Format/Info : Enhanced AC-3
Commercial name : Dolby Digital Plus
Codec ID : A_EAC3
Duration : 41 min 37 s
Bit rate mode : Constant
Bit rate : 640 kb/s
Channel(s) : 6 channels
Channel layout : L R C LFE Ls Rs
Sampling rate : 48.0 kHz
Frame rate : 31.250 FPS (1536 SPF)
Compression mode : Lossy
Stream size : 191 MiB (9%)
Language : English
Service kind : Complete Main
Default : Yes
Forced : No

Text
ID : 3
Format : UTF-8
Codec ID : S_TEXT/UTF8
Codec ID/Info : UTF-8 Plain Text
Title : English
Language : English
Default : No
Forced : No

Clarice.S01E04.초고화질.WEB.H264-GLHF
번역하기: 한국 한국어


<< 이 게시판에서 관련된 자료 목록 >>
 [구글검색] 구글에서 바다보아 검색 - 구글에서 토렌트를 검색하실 때에 검색어 뒤에 바다보아를 꼭 붙여서 검색하세요.     바다보아에서 광고중인 웹에 문제가 있다면 상단에 나와 있는 운영자 이메일로 연락 주십시오.     사용자님의 다운로드가 완료될 때까지 저희가 함께하겠습니다. 편안하고 즐거운 시간 되십시오.

웹하드 파일몽

  

  

  

IMFORMATION STORE

상단으로 가운데로 하단으로