website statistics
For All Mankind S02E01 (2160p ATVP WEB-DL NV HEVC 10bit AAC 5.1 J... > 외국티비 > 대한민국 No.1 바다보아

팝업레이어 알림

ibekr_block.png
 [구글검색] 구글에서 바다보아 검색 - 구글에서 토렌트를 검색하실 때에 검색어 뒤에 바다보아를 꼭 붙여서 검색하세요.     바다보아에서 광고중인 웹에 문제가 있다면 상단에 나와 있는 운영자 이메일로 연락 주십시오.     사용자님의 다운로드가 완료될 때까지 저희가 함께하겠습니다. 편안하고 즐거운 시간 되십시오.

웹하드 찐플

  

  

For All Mankind S02E01 (2160p ATVP WEB-DL NV HEVC 10bit AAC 5.1 J...

댓글 : 0 조회 : 28 인증 0 신고 0 자료가 없을 때 씨앗이 부족할 때 속도가 느릴 때 토렌트에 없을 때
d3b6b24ce9a53a31acf3a8e867225ed2.png

Media Information

Media Information


Code:

General
Format                                   : Matroska
Format version                           : Version 4 / Version 2
File size                                : 1.78 GiB
Duration                                 : 56 min 59 s
Overall bit rate                         : 4 459 kb/s
Movie name                               : For All Mankind S02E01  [2160p NV 10bit Joy][UTR]
Encoded date                             : UTC 2021-02-20 21:02:09
Writing application                      : mkvmerge v34.0.0 (Sight and Seen) 64-bit
Writing library                          : libebml v1.3.7 + libmatroska v1.5.0

Video
ID                                       : 1
Format                                   : HEVC
Format/Info                              : High Efficiency Video Coding
Format profile                           : Main [email protected]@High
Codec ID                                 : V_MPEGH/ISO/HEVC
Duration                                 : 54 min 39 s
Bit rate                                 : 3 840 kb/s
Width                                    : 3 840 pixels
Height                                   : 1 920 pixels
Display aspect ratio                     : 2.000
Frame rate mode                          : Constant
Frame rate                               : 25.000 FPS
Color space                              : YUV
Chroma subsampling                       : 4:2:0
Bit depth                                : 10 bits
Bits/(Pixel*Frame)                       : 0.021
Stream size                              : 1.47 GiB (83%)
Default                                  : Yes
Forced                                   : No

Audio
ID                                       : 2
Format                                   : E-AC-3
Format/Info                              : Enhanced Audio Coding 3
Format settings, Endianness              : Big
Codec ID                                 : A_EAC3
Duration                                 : 56 min 59 s
Bit rate mode                            : Constant
Bit rate                                 : 768 kb/s
Channel(s)                               : 6 channels
Channel positions                        : Front: L C R, Side: L R, LFE
Sampling rate                            : 48.0 kHz
Frame rate                               : 187.500 FPS (256 spf)
Compression mode                         : Lossy
Stream size                              : 313 MiB (17%)
Language                                 : English
Default                                  : No
Forced                                   : No

Subtitle #1
ID                                       : 3
Format                                   : UTF-8
Codec ID                                 : S_TEXT/UTF8
Codec ID/Info                            : UTF-8 Plain Text
Duration                                 : 52 min 6 s
Bit rate                                 : 76 b/s
Count of elements                        : 749
Stream size                              : 29.4 KiB (0%)
Language                                 : English
Default                                  : No
Forced                                   : No

Subtitle #2
ID                                       : 4
Format                                   : UTF-8
Codec ID                                 : S_TEXT/UTF8
Codec ID/Info                            : UTF-8 Plain Text
Duration                                 : 56 min 43 s
Bit rate                                 : 104 b/s
Count of elements                        : 787
Stream size                              : 43.4 KiB (0%)
Language                                 : Arabic
Default                                  : No
Forced                                   : No

Subtitle #3
ID                                       : 5
Format                                   : UTF-8
Codec ID                                 : S_TEXT/UTF8
Codec ID/Info                            : UTF-8 Plain Text
Duration                                 : 56 min 43 s
Bit rate                                 : 106 b/s
Count of elements                        : 761
Stream size                              : 44.1 KiB (0%)
Language                                 : Bulgarian
Default                                  : No
Forced                                   : No

Subtitle #4
ID                                       : 6
Format                                   : UTF-8
Codec ID                                 : S_TEXT/UTF8
Codec ID/Info                            : UTF-8 Plain Text
Duration                                 : 56 min 43 s
Bit rate                                 : 61 b/s
Count of elements                        : 787
Stream size                              : 25.4 KiB (0%)
Language                                 : Chinese
Default                                  : No
Forced                                   : No

Subtitle #5
ID                                       : 7
Format                                   : UTF-8
Codec ID                                 : S_TEXT/UTF8
Codec ID/Info                            : UTF-8 Plain Text
Duration                                 : 56 min 43 s
Bit rate                                 : 63 b/s
Count of elements                        : 788
Stream size                              : 26.6 KiB (0%)
Language                                 : Chinese
Default                                  : No
Forced                                   : No

Subtitle #6
ID                                       : 8
Format                                   : UTF-8
Codec ID                                 : S_TEXT/UTF8
Codec ID/Info                            : UTF-8 Plain Text
Duration                                 : 56 min 43 s
Bit rate                                 : 64 b/s
Count of elements                        : 740
Stream size                              : 26.7 KiB (0%)
Language                                 : Czech
Default                                  : No
Forced                                   : No

Subtitle #7
ID                                       : 9
Format                                   : UTF-8
Codec ID                                 : S_TEXT/UTF8
Codec ID/Info                            : UTF-8 Plain Text
Duration                                 : 56 min 43 s
Bit rate                                 : 68 b/s
Count of elements                        : 722
Stream size                              : 28.4 KiB (0%)
Language                                 : Danish
Default                                  : No
Forced                                   : No

Subtitle #8
ID                                       : 10
Format                                   : UTF-8
Codec ID                                 : S_TEXT/UTF8
Codec ID/Info                            : UTF-8 Plain Text
Duration                                 : 56 min 39 s
Bit rate                                 : 71 b/s
Count of elements                        : 737
Stream size                              : 29.8 KiB (0%)
Language                                 : German
Default                                  : No
Forced                                   : No

Subtitle #9
ID                                       : 11
Format                                   : UTF-8
Codec ID                                 : S_TEXT/UTF8
Codec ID/Info                            : UTF-8 Plain Text
Duration                                 : 56 min 43 s
Bit rate                                 : 116 b/s
Count of elements                        : 774
Stream size                              : 48.4 KiB (0%)
Language                                 : Greek
Default                                  : No
Forced                                   : No

Subtitle #10
ID                                       : 12
Format                                   : UTF-8
Codec ID                                 : S_TEXT/UTF8
Codec ID/Info                            : UTF-8 Plain Text
Duration                                 : 56 min 43 s
Bit rate                                 : 70 b/s
Count of elements                        : 777
Stream size                              : 29.3 KiB (0%)
Language                                 : Spanish
Default                                  : No
Forced                                   : No

Subtitle #11
ID                                       : 13
Format                                   : UTF-8
Codec ID                                 : S_TEXT/UTF8
Codec ID/Info                            : UTF-8 Plain Text
Duration                                 : 56 min 46 s
Bit rate                                 : 75 b/s
Count of elements                        : 770
Stream size                              : 31.2 KiB (0%)
Language                                 : Spanish
Default                                  : No
Forced                                   : No

Subtitle #12
ID                                       : 14
Format                                   : UTF-8
Codec ID                                 : S_TEXT/UTF8
Codec ID/Info                            : UTF-8 Plain Text
Duration                                 : 56 min 43 s
Bit rate                                 : 63 b/s
Count of elements                        : 701
Stream size                              : 26.4 KiB (0%)
Language                                 : Estonian
Default                                  : No
Forced                                   : No

Subtitle #13
ID                                       : 15
Format                                   : UTF-8
Codec ID                                 : S_TEXT/UTF8
Codec ID/Info                            : UTF-8 Plain Text
Duration                                 : 56 min 43 s
Bit rate                                 : 62 b/s
Count of elements                        : 765
Stream size                              : 26.0 KiB (0%)
Language                                 : Finnish
Default                                  : No
Forced                                   : No

Subtitle #14
ID                                       : 16
Format                                   : UTF-8
Codec ID                                 : S_TEXT/UTF8
Codec ID/Info                            : UTF-8 Plain Text
Duration                                 : 56 min 39 s
Bit rate                                 : 59 b/s
Count of elements                        : 737
Stream size                              : 24.6 KiB (0%)
Language                                 : French
Default                                  : No
Forced                                   : No

Subtitle #15
ID                                       : 17
Format                                   : UTF-8
Codec ID                                 : S_TEXT/UTF8
Codec ID/Info                            : UTF-8 Plain Text
Duration                                 : 56 min 39 s
Bit rate                                 : 59 b/s
Count of elements                        : 736
Stream size                              : 24.6 KiB (0%)
Language                                 : French
Default                                  : No
Forced                                   : No

Subtitle #16
ID                                       : 18
Format                                   : UTF-8
Codec ID                                 : S_TEXT/UTF8
Codec ID/Info                            : UTF-8 Plain Text
Duration                                 : 56 min 43 s
Bit rate                                 : 99 b/s
Count of elements                        : 789
Stream size                              : 41.3 KiB (0%)
Language                                 : Hebrew
Default                                  : No
Forced                                   : No

Subtitle #17
ID                                       : 19
Format                                   : UTF-8
Codec ID                                 : S_TEXT/UTF8
Codec ID/Info                            : UTF-8 Plain Text
Duration                                 : 56 min 43 s
Bit rate                                 : 181 b/s
Count of elements                        : 774
Stream size                              : 75.3 KiB (0%)
Language                                 : Hindi
Default                                  : No
Forced                                   : No

Subtitle #18
ID                                       : 20
Format                                   : UTF-8
Codec ID                                 : S_TEXT/UTF8
Codec ID/Info                            : UTF-8 Plain Text
Duration                                 : 56 min 43 s
Bit rate                                 : 62 b/s
Count of elements                        : 766
Stream size                              : 26.0 KiB (0%)
Language                                 : Hungarian
Default                                  : No
Forced                                   : No

Subtitle #19
ID                                       : 21
Format                                   : UTF-8
Codec ID                                 : S_TEXT/UTF8
Codec ID/Info                            : UTF-8 Plain Text
Duration                                 : 56 min 43 s
Bit rate                                 : 71 b/s
Count of elements                        : 786
Stream size                              : 29.9 KiB (0%)
Language                                 : Indonesian
Default                                  : No
Forced                                   : No

Subtitle #20
ID                                       : 22
Format                                   : UTF-8
Codec ID                                 : S_TEXT/UTF8
Codec ID/Info                            : UTF-8 Plain Text
Duration                                 : 56 min 44 s
Bit rate                                 : 68 b/s
Count of elements                        : 694
Stream size                              : 28.6 KiB (0%)
Language                                 : Italian
Default                                  : No
Forced                                   : No

Subtitle #21
ID                                       : 23
Format                                   : UTF-8
Codec ID                                 : S_TEXT/UTF8
Codec ID/Info                            : UTF-8 Plain Text
Duration                                 : 56 min 47 s
Bit rate                                 : 52 b/s
Count of elements                        : 676
Stream size                              : 22.0 KiB (0%)
Language                                 : Japanese
Default                                  : No
Forced                                   : No

Subtitle #22
ID                                       : 24
Format                                   : UTF-8
Codec ID                                 : S_TEXT/UTF8
Codec ID/Info                            : UTF-8 Plain Text
Duration                                 : 56 min 43 s
Bit rate                                 : 71 b/s
Count of elements                        : 788
Stream size                              : 29.5 KiB (0%)
Language                                 : Korean
Default                                  : No
Forced                                   : No

Subtitle #23
ID                                       : 25
Format                                   : UTF-8
Codec ID                                 : S_TEXT/UTF8
Codec ID/Info                            : UTF-8 Plain Text
Duration                                 : 56 min 43 s
Bit rate                                 : 67 b/s
Count of elements                        : 772
Stream size                              : 28.2 KiB (0%)
Language                                 : Lithuanian
Default                                  : No
Forced                                   : No

Subtitle #24
ID                                       : 26
Format                                   : UTF-8
Codec ID                                 : S_TEXT/UTF8
Codec ID/Info                            : UTF-8 Plain Text
Duration                                 : 56 min 43 s
Bit rate                                 : 74 b/s
Count of elements                        : 784
Stream size                              : 30.9 KiB (0%)
Language                                 : Latvian
Default                                  : No
Forced                                   : No

Subtitle #25
ID                                       : 27
Format                                   : UTF-8
Codec ID                                 : S_TEXT/UTF8
Codec ID/Info                            : UTF-8 Plain Text
Duration                                 : 56 min 43 s
Bit rate                                 : 73 b/s
Count of elements                        : 787
Stream size                              : 30.5 KiB (0%)
Language                                 : Malay
Default                                  : No
Forced                                   : No

Subtitle #26
ID                                       : 28
Format                                   : UTF-8
Codec ID                                 : S_TEXT/UTF8
Codec ID/Info                            : UTF-8 Plain Text
Duration                                 : 56 min 43 s
Bit rate                                 : 58 b/s
Count of elements                        : 625
Stream size                              : 24.1 KiB (0%)
Language                                 : Dutch
Default                                  : No
Forced                                   : No

Subtitle #27
ID                                       : 29
Format                                   : UTF-8
Codec ID                                 : S_TEXT/UTF8
Codec ID/Info                            : UTF-8 Plain Text
Duration                                 : 56 min 43 s
Bit rate                                 : 66 b/s
Count of elements                        : 727
Stream size                              : 27.5 KiB (0%)
Language                                 : Norwegian Bokmal
Default                                  : No
Forced                                   : No

Subtitle #28
ID                                       : 30
Format                                   : UTF-8
Codec ID                                 : S_TEXT/UTF8
Codec ID/Info                            : UTF-8 Plain Text
Duration                                 : 56 min 43 s
Bit rate                                 : 63 b/s
Count of elements                        : 784
Stream size                              : 26.3 KiB (0%)
Language                                 : Polish
Default                                  : No
Forced                                   : No

Subtitle #29
ID                                       : 31
Format                                   : UTF-8
Codec ID                                 : S_TEXT/UTF8
Codec ID/Info                            : UTF-8 Plain Text
Duration                                 : 56 min 43 s
Bit rate                                 : 70 b/s
Count of elements                        : 771
Stream size                              : 29.2 KiB (0%)
Language                                 : Portuguese
Default                                  : No
Forced                                   : No

Subtitle #30
ID                                       : 32
Format                                   : UTF-8
Codec ID                                 : S_TEXT/UTF8
Codec ID/Info                            : UTF-8 Plain Text
Duration                                 : 56 min 43 s
Bit rate                                 : 64 b/s
Count of elements                        : 767
Stream size                              : 26.9 KiB (0%)
Language                                 : Portuguese
Default                                  : No
Forced                                   : No

Subtitle #31
ID                                       : 33
Format                                   : UTF-8
Codec ID                                 : S_TEXT/UTF8
Codec ID/Info                            : UTF-8 Plain Text
Duration                                 : 52 min 6 s
Bit rate                                 : 124 b/s
Count of elements                        : 787
Stream size                              : 47.5 KiB (0%)
Language                                 : Russian
Default                                  : No
Forced                                   : No

Subtitle #32
ID                                       : 34
Format                                   : UTF-8
Codec ID                                 : S_TEXT/UTF8
Codec ID/Info                            : UTF-8 Plain Text
Duration                                 : 56 min 43 s
Bit rate                                 : 62 b/s
Count of elements                        : 762
Stream size                              : 25.9 KiB (0%)
Language                                 : Slovak
Default                                  : No
Forced                                   : No

Subtitle #33
ID                                       : 35
Format                                   : UTF-8
Codec ID                                 : S_TEXT/UTF8
Codec ID/Info                            : UTF-8 Plain Text
Duration                                 : 56 min 43 s
Bit rate                                 : 58 b/s
Count of elements                        : 760
Stream size                              : 24.2 KiB (0%)
Language                                 : Slovenian
Default                                  : No
Forced                                   : No

Subtitle #34
ID                                       : 36
Format                                   : UTF-8
Codec ID                                 : S_TEXT/UTF8
Codec ID/Info                            : UTF-8 Plain Text
Duration                                 : 56 min 43 s
Bit rate                                 : 68 b/s
Count of elements                        : 783
Stream size                              : 28.6 KiB (0%)
Language                                 : Swedish
Default                                  : No
Forced                                   : No

Subtitle #35
ID                                       : 37
Format                                   : UTF-8
Codec ID                                 : S_TEXT/UTF8
Codec ID/Info                            : UTF-8 Plain Text
Duration                                 : 56 min 43 s
Bit rate                                 : 225 b/s
Count of elements                        : 788
Stream size                              : 93.8 KiB (0%)
Language                                 : Tamil
Default                                  : No
Forced                                   : No

Subtitle #36
ID                                       : 38
Format                                   : UTF-8
Codec ID                                 : S_TEXT/UTF8
Codec ID/Info                            : UTF-8 Plain Text
Duration                                 : 56 min 43 s
Bit rate                                 : 200 b/s
Count of elements                        : 788
Stream size                              : 83.3 KiB (0%)
Language                                 : Telugu
Default                                  : No
Forced                                   : No

Subtitle #37
ID                                       : 39
Format                                   : UTF-8
Codec ID                                 : S_TEXT/UTF8
Codec ID/Info                            : UTF-8 Plain Text
Duration                                 : 56 min 43 s
Bit rate                                 : 185 b/s
Count of elements                        : 789
Stream size                              : 77.0 KiB (0%)
Language                                 : Thai
Default                                  : No
Forced                                   : No

Subtitle #38
ID                                       : 40
Format                                   : UTF-8
Codec ID                                 : S_TEXT/UTF8
Codec ID/Info                            : UTF-8 Plain Text
Duration                                 : 56 min 43 s
Bit rate                                 : 73 b/s
Count of elements                        : 785
Stream size                              : 30.6 KiB (0%)
Language                                 : Turkish
Default                                  : No
Forced                                   : No

Subtitle #39
ID                                       : 41
Format                                   : UTF-8
Codec ID                                 : S_TEXT/UTF8
Codec ID/Info                            : UTF-8 Plain Text
Duration                                 : 56 min 43 s
Bit rate                                 : 108 b/s
Count of elements                        : 788
Stream size                              : 45.2 KiB (0%)
Language                                 : Ukrainian
Default                                  : No
Forced                                   : No

Subtitle #40
ID                                       : 42
Format                                   : UTF-8
Codec ID                                 : S_TEXT/UTF8
Codec ID/Info                            : UTF-8 Plain Text
Duration                                 : 56 min 43 s
Bit rate                                 : 93 b/s
Count of elements                        : 788
Stream size                              : 38.7 KiB (0%)
Language                                 : Vietnamese
Default                                  : No
Forced                                   : No

Subtitle #41
ID                                       : 43
Format                                   : UTF-8
Codec ID                                 : S_TEXT/UTF8
Codec ID/Info                            : UTF-8 Plain Text
Duration                                 : 56 min 43 s
Bit rate                                 : 62 b/s
Count of elements                        : 789
Stream size                              : 26.1 KiB (0%)
Language                                 : Chinese
Default                                  : No
Forced                                   : No



Source Information


Code:

Release:
For.All.Mankind.S02E01.2160p.WEB.H265-GGWP.mkv (8.57 GBs)


Code:

eaac5c2cd9d19f279c0989e374b401ca.png

d3b6b24ce9a53a31acf3a8e867225ed2.png

Media Information

Media Information


Code:

General
Format                                   : Matroska
Format version                           : Version 4 / Version 2
File size                                : 1.78 GiB
Duration                                 : 56 min 59 s
Overall bit rate                         : 4 459 kb/s
Movie name                               : For All Mankind S02E01  [2160p NV 10bit Joy][UTR]
Encoded date                             : UTC 2021-02-20 21:02:09
Writing application                      : mkvmerge v34.0.0 (Sight and Seen) 64-bit
Writing library                          : libebml v1.3.7 + libmatroska v1.5.0

Video
ID                                       : 1
Format                                   : HEVC
Format/Info                              : High Efficiency Video Coding
Format profile                           : Main [email protected]@High
Codec ID                                 : V_MPEGH/ISO/HEVC
Duration                                 : 54 min 39 s
Bit rate                                 : 3 840 kb/s
Width                                    : 3 840 pixels
Height                                   : 1 920 pixels
Display aspect ratio                     : 2.000
Frame rate mode                          : Constant
Frame rate                               : 25.000 FPS
Color space                              : YUV
Chroma subsampling                       : 4:2:0
Bit depth                                : 10 bits
Bits/(Pixel*Frame)                       : 0.021
Stream size                              : 1.47 GiB (83%)
Default                                  : Yes
Forced                                   : No

Audio
ID                                       : 2
Format                                   : E-AC-3
Format/Info                              : Enhanced Audio Coding 3
Format settings, Endianness              : Big
Codec ID                                 : A_EAC3
Duration                                 : 56 min 59 s
Bit rate mode                            : Constant
Bit rate                                 : 768 kb/s
Channel(s)                               : 6 channels
Channel positions                        : Front: L C R, Side: L R, LFE
Sampling rate                            : 48.0 kHz
Frame rate                               : 187.500 FPS (256 spf)
Compression mode                         : Lossy
Stream size                              : 313 MiB (17%)
Language                                 : English
Default                                  : No
Forced                                   : No

Subtitle #1
ID                                       : 3
Format                                   : UTF-8
Codec ID                                 : S_TEXT/UTF8
Codec ID/Info                            : UTF-8 Plain Text
Duration                                 : 52 min 6 s
Bit rate                                 : 76 b/s
Count of elements                        : 749
Stream size                              : 29.4 KiB (0%)
Language                                 : English
Default                                  : No
Forced                                   : No

Subtitle #2
ID                                       : 4
Format                                   : UTF-8
Codec ID                                 : S_TEXT/UTF8
Codec ID/Info                            : UTF-8 Plain Text
Duration                                 : 56 min 43 s
Bit rate                                 : 104 b/s
Count of elements                        : 787
Stream size                              : 43.4 KiB (0%)
Language                                 : Arabic
Default                                  : No
Forced                                   : No

Subtitle #3
ID                                       : 5
Format                                   : UTF-8
Codec ID                                 : S_TEXT/UTF8
Codec ID/Info                            : UTF-8 Plain Text
Duration                                 : 56 min 43 s
Bit rate                                 : 106 b/s
Count of elements                        : 761
Stream size                              : 44.1 KiB (0%)
Language                                 : Bulgarian
Default                                  : No
Forced                                   : No

Subtitle #4
ID                                       : 6
Format                                   : UTF-8
Codec ID                                 : S_TEXT/UTF8
Codec ID/Info                            : UTF-8 Plain Text
Duration                                 : 56 min 43 s
Bit rate                                 : 61 b/s
Count of elements                        : 787
Stream size                              : 25.4 KiB (0%)
Language                                 : Chinese
Default                                  : No
Forced                                   : No

Subtitle #5
ID                                       : 7
Format                                   : UTF-8
Codec ID                                 : S_TEXT/UTF8
Codec ID/Info                            : UTF-8 Plain Text
Duration                                 : 56 min 43 s
Bit rate                                 : 63 b/s
Count of elements                        : 788
Stream size                              : 26.6 KiB (0%)
Language                                 : Chinese
Default                                  : No
Forced                                   : No

Subtitle #6
ID                                       : 8
Format                                   : UTF-8
Codec ID                                 : S_TEXT/UTF8
Codec ID/Info                            : UTF-8 Plain Text
Duration                                 : 56 min 43 s
Bit rate                                 : 64 b/s
Count of elements                        : 740
Stream size                              : 26.7 KiB (0%)
Language                                 : Czech
Default                                  : No
Forced                                   : No

Subtitle #7
ID                                       : 9
Format                                   : UTF-8
Codec ID                                 : S_TEXT/UTF8
Codec ID/Info                            : UTF-8 Plain Text
Duration                                 : 56 min 43 s
Bit rate                                 : 68 b/s
Count of elements                        : 722
Stream size                              : 28.4 KiB (0%)
Language                                 : Danish
Default                                  : No
Forced                                   : No

Subtitle #8
ID                                       : 10
Format                                   : UTF-8
Codec ID                                 : S_TEXT/UTF8
Codec ID/Info                            : UTF-8 Plain Text
Duration                                 : 56 min 39 s
Bit rate                                 : 71 b/s
Count of elements                        : 737
Stream size                              : 29.8 KiB (0%)
Language                                 : German
Default                                  : No
Forced                                   : No

Subtitle #9
ID                                       : 11
Format                                   : UTF-8
Codec ID                                 : S_TEXT/UTF8
Codec ID/Info                            : UTF-8 Plain Text
Duration                                 : 56 min 43 s
Bit rate                                 : 116 b/s
Count of elements                        : 774
Stream size                              : 48.4 KiB (0%)
Language                                 : Greek
Default                                  : No
Forced                                   : No

Subtitle #10
ID                                       : 12
Format                                   : UTF-8
Codec ID                                 : S_TEXT/UTF8
Codec ID/Info                            : UTF-8 Plain Text
Duration                                 : 56 min 43 s
Bit rate                                 : 70 b/s
Count of elements                        : 777
Stream size                              : 29.3 KiB (0%)
Language                                 : Spanish
Default                                  : No
Forced                                   : No

Subtitle #11
ID                                       : 13
Format                                   : UTF-8
Codec ID                                 : S_TEXT/UTF8
Codec ID/Info                            : UTF-8 Plain Text
Duration                                 : 56 min 46 s
Bit rate                                 : 75 b/s
Count of elements                        : 770
Stream size                              : 31.2 KiB (0%)
Language                                 : Spanish
Default                                  : No
Forced                                   : No

Subtitle #12
ID                                       : 14
Format                                   : UTF-8
Codec ID                                 : S_TEXT/UTF8
Codec ID/Info                            : UTF-8 Plain Text
Duration                                 : 56 min 43 s
Bit rate                                 : 63 b/s
Count of elements                        : 701
Stream size                              : 26.4 KiB (0%)
Language                                 : Estonian
Default                                  : No
Forced                                   : No

Subtitle #13
ID                                       : 15
Format                                   : UTF-8
Codec ID                                 : S_TEXT/UTF8
Codec ID/Info                            : UTF-8 Plain Text
Duration                                 : 56 min 43 s
Bit rate                                 : 62 b/s
Count of elements                        : 765
Stream size                              : 26.0 KiB (0%)
Language                                 : Finnish
Default                                  : No
Forced                                   : No

Subtitle #14
ID                                       : 16
Format                                   : UTF-8
Codec ID                                 : S_TEXT/UTF8
Codec ID/Info                            : UTF-8 Plain Text
Duration                                 : 56 min 39 s
Bit rate                                 : 59 b/s
Count of elements                        : 737
Stream size                              : 24.6 KiB (0%)
Language                                 : French
Default                                  : No
Forced                                   : No

Subtitle #15
ID                                       : 17
Format                                   : UTF-8
Codec ID                                 : S_TEXT/UTF8
Codec ID/Info                            : UTF-8 Plain Text
Duration                                 : 56 min 39 s
Bit rate                                 : 59 b/s
Count of elements                        : 736
Stream size                              : 24.6 KiB (0%)
Language                                 : French
Default                                  : No
Forced                                   : No

Subtitle #16
ID                                       : 18
Format                                   : UTF-8
Codec ID                                 : S_TEXT/UTF8
Codec ID/Info                            : UTF-8 Plain Text
Duration                                 : 56 min 43 s
Bit rate                                 : 99 b/s
Count of elements                        : 789
Stream size                              : 41.3 KiB (0%)
Language                                 : Hebrew
Default                                  : No
Forced                                   : No

Subtitle #17
ID                                       : 19
Format                                   : UTF-8
Codec ID                                 : S_TEXT/UTF8
Codec ID/Info                            : UTF-8 Plain Text
Duration                                 : 56 min 43 s
Bit rate                                 : 181 b/s
Count of elements                        : 774
Stream size                              : 75.3 KiB (0%)
Language                                 : Hindi
Default                                  : No
Forced                                   : No

Subtitle #18
ID                                       : 20
Format                                   : UTF-8
Codec ID                                 : S_TEXT/UTF8
Codec ID/Info                            : UTF-8 Plain Text
Duration                                 : 56 min 43 s
Bit rate                                 : 62 b/s
Count of elements                        : 766
Stream size                              : 26.0 KiB (0%)
Language                                 : Hungarian
Default                                  : No
Forced                                   : No

Subtitle #19
ID                                       : 21
Format                                   : UTF-8
Codec ID                                 : S_TEXT/UTF8
Codec ID/Info                            : UTF-8 Plain Text
Duration                                 : 56 min 43 s
Bit rate                                 : 71 b/s
Count of elements                        : 786
Stream size                              : 29.9 KiB (0%)
Language                                 : Indonesian
Default                                  : No
Forced                                   : No

Subtitle #20
ID                                       : 22
Format                                   : UTF-8
Codec ID                                 : S_TEXT/UTF8
Codec ID/Info                            : UTF-8 Plain Text
Duration                                 : 56 min 44 s
Bit rate                                 : 68 b/s
Count of elements                        : 694
Stream size                              : 28.6 KiB (0%)
Language                                 : Italian
Default                                  : No
Forced                  
번역하기: 한국 한국어


<< 이 게시판에서 관련된 자료 목록 >>
 [구글검색] 구글에서 바다보아 검색 - 구글에서 토렌트를 검색하실 때에 검색어 뒤에 바다보아를 꼭 붙여서 검색하세요.     바다보아에서 광고중인 웹에 문제가 있다면 상단에 나와 있는 운영자 이메일로 연락 주십시오.     사용자님의 다운로드가 완료될 때까지 저희가 함께하겠습니다. 편안하고 즐거운 시간 되십시오.

웹하드 파일몽

  

  

오늘의 인기 자료
글이 없습니다.

IMFORMATION STORE

상단으로 가운데로 하단으로