website statistics
Money Heist S02 고화질 NF WEBRip Hindi English AAC 5.1 x264 - Movie... > 외국티비 > 대한민국 No.1 바다보아

팝업레이어 알림

ibekr_block.png
 [구글검색] 구글에서 바다보아 검색 - 구글에서 토렌트를 검색하실 때에 검색어 뒤에 바다보아를 꼭 붙여서 검색하세요.     바다보아에서 광고중인 웹에 문제가 있다면 상단에 나와 있는 운영자 이메일로 연락 주십시오.     사용자님의 다운로드가 완료될 때까지 저희가 함께하겠습니다. 편안하고 즐거운 시간 되십시오.

웹하드 파일썬

  

  

Money Heist S02 고화질 NF WEBRip Hindi English AAC 5.1 x264 - Movie...

c4a53d4436502817aa449d3b7d5ed34a.md.png

Money_Heist_TV_Series-307600464-large.jpg

General
Unique ID                                : 17039639369675642469148872124486668072 (0xCD1B71567A2FBFC6BACE06833704F28)
Complete name                            : F:\Encode\Done\Money Heist S02 고화질 NF WEBRip Hindi English AAC 5.1 x264 - MoviePirate - Telly\Money.Heist.S02E01.고화질.NF.WEBRip.Hindi.English.AAC.5.1.x264-MoviePirate-Telly.mkv
Format                                   : Matroska
Format version                           : Version 4
File size                                : 399 MiB
Duration                                 : 43 min 54 s
Overall bit rate                         : 1 271 kb/s
Movie name                               : MoviePirate - Telly
Encoded date                             : UTC 2021-02-19 15:23:54
Writing application                      : mkvmerge v39.0.0 (In The Waiting Line) 64-bit
Writing library                          : libebml v1.3.9 + libmatroska v1.5.2
Video
ID                                       : 1
Format                                   : AVC
Format/Info                              : Advanced Video Codec
Format profile                           : [email protected]
Format settings                          : CABAC / 4 Ref Frames
Format settings, CABAC                   : Yes
Format settings, Reference frames        : 4 frames
Codec ID                                 : V_MPEG4/ISO/AVC
Duration                                 : 43 min 54 s
Bit rate                                 : 1 050 kb/s
Width                                    : 1 280 pixels
Height                                   : 720 pixels
Display aspect ratio                     : 16:9
Frame rate mode                          : Constant
Frame rate                               : 25.000 FPS
Color space                              : YUV
Chroma subsampling                       : 4:2:0
Bit depth                                : 8 bits
Scan type                                : Progressive
Bits/(Pixel*Frame)                       : 0.046
Stream size                              : 317 MiB (79%)
Title                                    : MoviePirate - Telly
Writing library                          : x264 core 157 r2969 d4099dd
Encoding settings                        : cabac=1 / ref=2 / deblock=1:0:0 / analyse=0x3:0x113 / me=hex / subme=6 / psy=1 / psy_rd=1.00:0.00 / mixed_ref=1 / me_range=16 / chroma_me=1 / trellis=1 / 8x8dct=1 / cqm=0 / deadzone=21,11 / fast_pskip=1 / chroma_qp_offset=-2 / threads=6 / lookahead_threads=1 / sliced_threads=0 / nr=0 / decimate=1 / interlaced=0 / bluray_compat=0 / constrained_intra=0 / bframes=3 / b_pyramid=2 / b_adapt=1 / b_bias=0 / direct=1 / weightb=1 / open_gop=0 / weightp=1 / keyint=250 / keyint_min=25 / scenecut=40 / intra_refresh=0 / rc_lookahead=30 / rc=abr / mbtree=1 / bitrate=1050 / ratetol=1.0 / qcomp=0.60 / qpmin=0 / qpmax=69 / qpstep=4 / ip_ratio=1.40 / aq=1:1.00
Default                                  : Yes
Forced                                   : No
Audio #1
ID                                       : 2
Format                                   : AAC LC SBR
Format/Info                              : Advanced Audio Codec Low Complexity with Spectral Band Replication
Commercial name                          : HE-AAC
Format settings                          : Explicit
Codec ID                                 : A_AAC-2
Duration                                 : 43 min 54 s
Bit rate                                 : 128 kb/s
Channel(s)                               : 6 channels
Channel layout                           : C L R Ls Rs LFE
Sampling rate                            : 48.0 kHz
Frame rate                               : 23.438 FPS (2048 SPF)
Compression mode                         : Lossy
Stream size                              : 40.2 MiB (10%)
Title                                    : Hindi
Language                                 : English
Default                                  : No
Forced                                   : No
Audio #2
ID                                       : 3
Format                                   : AAC LC SBR
Format/Info                              : Advanced Audio Codec Low Complexity with Spectral Band Replication
Commercial name                          : HE-AAC
Format settings                          : Explicit
Codec ID                                 : A_AAC-2
Duration                                 : 43 min 54 s
Bit rate                                 : 128 kb/s
Channel(s)                               : 6 channels
Channel layout                           : C L R Ls Rs LFE
Sampling rate                            : 48.0 kHz
Frame rate                               : 23.438 FPS (2048 SPF)
Compression mode                         : Lossy
Stream size                              : 40.2 MiB (10%)
Title                                    : English
Language                                 : English
Default                                  : No
Forced                                   : No
Text #1
ID                                       : 4
Format                                   : UTF-8
Codec ID                                 : S_TEXT/UTF8
Codec ID/Info                            : UTF-8 Plain Text
Duration                                 : 42 min 32 s
Bit rate                                 : 57 b/s
Count of elements                        : 483
Stream size                              : 17.8 KiB (0%)
Title                                    : English
Language                                 : English
Default                                  : No
Forced                                   : No
Text #2
ID                                       : 5
Format                                   : UTF-8
Codec ID                                 : S_TEXT/UTF8
Codec ID/Info                            : UTF-8 Plain Text
Duration                                 : 42 min 32 s
Bit rate                                 : 57 b/s
Count of elements                        : 483
Stream size                              : 17.8 KiB (0%)
Title                                    : English
Language                                 : English
Default                                  : No
Forced                                   : No
Text #3
ID                                       : 6
Format                                   : UTF-8
Codec ID                                 : S_TEXT/UTF8
Codec ID/Info                            : UTF-8 Plain Text
Duration                                 : 42 min 27 s
Bit rate                                 : 46 b/s
Count of elements                        : 464
Stream size                              : 14.4 KiB (0%)
Title                                    : Croatian
Language                                 : English
Default                                  : No
Forced                                   : No
Text #4
ID                                       : 7
Format                                   : UTF-8
Codec ID                                 : S_TEXT/UTF8
Codec ID/Info                            : UTF-8 Plain Text
Duration                                 : 42 min 33 s
Bit rate                                 : 51 b/s
Count of elements                        : 476
Stream size                              : 16.0 KiB (0%)
Title                                    : Czech
Language                                 : English
Default                                  : No
Forced                                   : No
Text #5
ID                                       : 8
Format                                   : UTF-8
Codec ID                                 : S_TEXT/UTF8
Codec ID/Info                            : UTF-8 Plain Text
Duration                                 : 42 min 34 s
Bit rate                                 : 51 b/s
Count of elements                        : 428
Stream size                              : 16.1 KiB (0%)
Title                                    : Danish
Language                                 : English
Default                                  : No
Forced                                   : No
Text #6
ID                                       : 9
Format                                   : UTF-8
Codec ID                                 : S_TEXT/UTF8
Codec ID/Info                            : UTF-8 Plain Text
Duration                                 : 42 min 34 s
Bit rate                                 : 47 b/s
Count of elements                        : 444
Stream size                              : 14.9 KiB (0%)
Title                                    : Dutch
Language                                 : English
Default                                  : No
Forced                                   : No
Text #7
ID                                       : 10
Format                                   : UTF-8
Codec ID                                 : S_TEXT/UTF8
Codec ID/Info                            : UTF-8 Plain Text
Duration                                 : 42 min 28 s
Bit rate                                 : 50 b/s
Count of elements                        : 442
Stream size                              : 15.7 KiB (0%)
Title                                    : Finnish
Language                                 : English
Default                                  : No
Forced                                   : No
Text #8
ID                                       : 11
Format                                   : UTF-8
Codec ID                                 : S_TEXT/UTF8
Codec ID/Info                            : UTF-8 Plain Text
Duration                                 : 42 min 23 s
Bit rate                                 : 50 b/s
Count of elements                        : 470
Stream size                              : 15.6 KiB (0%)
Title                                    : French
Language                                 : English
Default                                  : No
Forced                                   : No
Text #9
ID                                       : 12
Format                                   : UTF-8
Codec ID                                 : S_TEXT/UTF8
Codec ID/Info                            : UTF-8 Plain Text
Duration                                 : 42 min 34 s
Bit rate                                 : 54 b/s
Count of elements                        : 467
Stream size                              : 17.1 KiB (0%)
Title                                    : German
Language                                 : English
Default                                  : No
Forced                                   : No
Text #10
ID                                       : 13
Format                                   : UTF-8
Codec ID                                 : S_TEXT/UTF8
Codec ID/Info                            : UTF-8 Plain Text
Duration                                 : 42 min 34 s
Bit rate                                 : 87 b/s
Count of elements                        : 467
Stream size                              : 27.2 KiB (0%)
Title                                    : Greek
Language                                 : English
Default                                  : No
Forced                                   : No
Text #11
ID                                       : 14
Format                                   : UTF-8
Codec ID                                 : S_TEXT/UTF8
Codec ID/Info                            : UTF-8 Plain Text
Duration                                 : 42 min 34 s
Bit rate                                 : 77 b/s
Count of elements                        : 467
Stream size                              : 24.3 KiB (0%)
Title                                    : Hebrew
Language                                 : English
Default                                  : No
Forced                                   : No
Text #12
ID                                       : 15
Format                                   : UTF-8
Codec ID                                 : S_TEXT/UTF8
Codec ID/Info                            : UTF-8 Plain Text
Duration                                 : 42 min 30 s
Bit rate                                 : 52 b/s
Count of elements                        : 459
Stream size                              : 16.4 KiB (0%)
Title                                    : Hungarian
Language                                 : English
Default                                  : No
Forced                                   : No
Text #13
ID                                       : 16
Format                                   : UTF-8
Codec ID                                 : S_TEXT/UTF8
Codec ID/Info                            : UTF-8 Plain Text
Duration                                 : 42 min 32 s
Bit rate                                 : 51 b/s
Count of elements                        : 462
Stream size                              : 16.1 KiB (0%)
Title                                    : Indonesian
Language                                 : English
Default                                  : No
Forced                                   : No
Text #14
ID                                       : 17
Format                                   : UTF-8
Codec ID                                 : S_TEXT/UTF8
Codec ID/Info                            : UTF-8 Plain Text
Duration                                 : 42 min 34 s
Bit rate                                 : 53 b/s
Count of elements                        : 472
Stream size                              : 16.5 KiB (0%)
Title                                    : Italian
Language                                 : English
Default                                  : No
Forced                                   : No
Text #15
ID                                       : 18
Format                                   : UTF-8
Codec ID                                 : S_TEXT/UTF8
Codec ID/Info                            : UTF-8 Plain Text
Duration                                 : 42 min 23 s
Bit rate                                 : 43 b/s
Count of elements                        : 460
Stream size                              : 13.5 KiB (0%)
Title                                    : Japanese
Language                                 : English
Default                                  : No
Forced                                   : No
Text #16
ID                                       : 19
Format                                   : UTF-8
Codec ID                                 : S_TEXT/UTF8
Codec ID/Info                            : UTF-8 Plain Text
Duration                                 : 42 min 34 s
Bit rate                                 : 56 b/s
Count of elements                        : 474
Stream size                              : 17.6 KiB (0%)
Title                                    : Korean
Language                                 : English
Default                                  : No
Forced                                   : No
Text #17
ID                                       : 20
Format                                   : UTF-8
Codec ID                                 : S_TEXT/UTF8
Codec ID/Info                            : UTF-8 Plain Text
Duration                                 : 42 min 34 s
Bit rate                                 : 52 b/s
Count of elements                        : 469
Stream size                              : 16.2 KiB (0%)
Title                                    : Malay
Language                                 : English
Default                                  : No
Forced                                   : No
Text #18
ID                                       : 21
Format                                   : UTF-8
Codec ID                                 : S_TEXT/UTF8
Codec ID/Info                            : UTF-8 Plain Text
Duration                                 : 42 min 34 s
Bit rate                                 : 48 b/s
Count of elements                        : 469
Stream size                              : 15.0 KiB (0%)
Title                                    : Norwegian Bokmal
Language                                 : English
Default                                  : No
Forced                                   : No
Text #19
ID                                       : 22
Format                                   : UTF-8
Codec ID                                 : S_TEXT/UTF8
Codec ID/Info                            : UTF-8 Plain Text
Duration                                 : 42 min 34 s
Bit rate                                 : 48 b/s
Count of elements                        : 461
Stream size                              : 15.1 KiB (0%)
Title                                    : Polish
Language                                 : English
Default                                  : No
Forced                                   : No
Text #20
ID                                       : 23
Format                                   : UTF-8
Codec ID                                 : S_TEXT/UTF8
Codec ID/Info                            : UTF-8 Plain Text
Duration                                 : 42 min 34 s
Bit rate                                 : 54 b/s
Count of elements                        : 468
Stream size                              : 16.9 KiB (0%)
Title                                    : Portuguese
Language                                 : English
Default                                  : No
Forced                                   : No
Text #21
ID                                       : 24
Format                                   : UTF-8
Codec ID                                 : S_TEXT/UTF8
Codec ID/Info                            : UTF-8 Plain Text
Duration                                 : 42 min 34 s
Bit rate                                 : 52 b/s
Count of elements                        : 464
Stream size                              : 16.3 KiB (0%)
Title                                    : Brazilian Portuguese
Language                                 : English
Default                                  : No
Forced                                   : No
Text #22
ID                                       : 25
Format                                   : UTF-8
Codec ID                                 : S_TEXT/UTF8
Codec ID/Info                            : UTF-8 Plain Text
Duration                                 : 42 min 34 s
Bit rate                                 : 52 b/s
Count of elements                        : 469
Stream size                              : 16.5 KiB (0%)
Title                                    : Romanian
Language                                 : English
Default                                  : No
Forced                                   : No
Text #23
ID                                       : 26
Format                                   : UTF-8
Codec ID                                 : S_TEXT/UTF8
Codec ID/Info                            : UTF-8 Plain Text
Duration                                 : 42 min 30 s
Bit rate                                 : 95 b/s
Count of elements                        : 472
Stream size                              : 29.8 KiB (0%)
Title                                    : Russian
Language                                 : English
Default                                  : No
Forced                                   : No
Text #24
ID                                       : 27
Format                                   : UTF-8
Codec ID                                 : S_TEXT/UTF8
Codec ID/Info                            : UTF-8 Plain Text
Duration                                 : 42 min 2 s
Bit rate                                 : 84 b/s
Count of elements                        : 546
Stream size                              : 26.1 KiB (0%)
Title                                    : European Spanish
Language                                 : English
Default                                  : No
Forced                                   : No
Text #25
ID                                       : 28
Format                                   : UTF-8
Codec ID                                 : S_TEXT/UTF8
Codec ID/Info                            : UTF-8 Plain Text
Duration                                 : 42 min 34 s
Bit rate                                 : 50 b/s
Count of elements                        : 459
Stream size                              : 15.8 KiB (0%)
Title                                    : Swedish
Language                                 : English
Default                                  : No
Forced                                   : No
Text #26
ID                                       : 29
Format                                   : UTF-8
Codec ID                                 : S_TEXT/UTF8
Codec ID/Info                            : UTF-8 Plain Text
Duration                                 : 42 min 34 s
Bit rate                                 : 125 b/s
Count of elements                        : 471
Stream size                              : 39.1 KiB (0%)
Title                                    : Thai
Language                                 : English
Default                                  : No
Forced                                   : No
Text #27
ID                                       : 30
Format                                   : UTF-8
Codec ID                                 : S_TEXT/UTF8
Codec ID/Info                            : UTF-8 Plain Text
Duration                                 : 42 min 34 s
Bit rate                                 : 51 b/s
Count of elements                        : 469
Stream size                              : 16.2 KiB (0%)
Title                                    : Turkish
Language                                 : English
Default                                  : No
Forced                                   : No
Text #28
ID                                       : 31
Format                                   : UTF-8
Codec ID                                 : S_TEXT/UTF8
Codec ID/Info                            : UTF-8 Plain Text
Duration                                 : 42 min 33 s
Bit rate                                 : 63 b/s
Count of elements                        : 470
Stream size                              : 19.8 KiB (0%)
Title                                    : Vietnamese
Language                                 : English
Default                                  : No
Forced                                   : No

SS_logo.jpg






c4a53d4436502817aa449d3b7d5ed34a.md.png

Money_Heist_TV_Series-307600464-large.jpg

General
Unique ID                                : 17039639369675642469148872124486668072 (0xCD1B71567A2FBFC6BACE06833704F28)
Complete name                            : F:\Encode\Done\Money Heist S02 고화질 NF WEBRip Hindi English AAC 5.1 x264 - MoviePirate - Telly\Money.Heist.S02E01.고화질.NF.WEBRip.Hindi.English.AAC.5.1.x264-MoviePirate-Telly.mkv
Format                                   : Matroska
Format version                           : Version 4
File size                                : 399 MiB
Duration                                 : 43 min 54 s
Overall bit rate                         : 1 271 kb/s
Movie name                               : MoviePirate - Telly
Encoded date                             : UTC 2021-02-19 15:23:54
Writing application                      : mkvmerge v39.0.0 (In The Waiting Line) 64-bit
Writing library                          : libebml v1.3.9 + libmatroska v1.5.2
Video
ID                                       : 1
Format                                   : AVC
Format/Info                              : Advanced Video Codec
Format profile                           : [email protected]
Format settings                          : CABAC / 4 Ref Frames
Format settings, CABAC                   : Yes
Format settings, Reference frames        : 4 frames
Codec ID                                 : V_MPEG4/ISO/AVC
Duration                                 : 43 min 54 s
Bit rate                                 : 1 050 kb/s
Width                                    : 1 280 pixels
Height                                   : 720 pixels
Display aspect ratio                     : 16:9
Frame rate mode                          : Constant
Frame rate                               : 25.000 FPS
Color space                              : YUV
Chroma subsampling                       : 4:2:0
Bit depth                                : 8 bits
Scan type                                : Progressive
Bits/(Pixel*Frame)                       : 0.046
Stream size                              : 317 MiB (79%)
Title                                    : MoviePirate - Telly
Writing library                          : x264 core 157 r2969 d4099dd
Encoding settings                        : cabac=1 / ref=2 / deblock=1:0:0 / analyse=0x3:0x113 / me=hex / subme=6 / psy=1 / psy_rd=1.00:0.00 / mixed_ref=1 / me_range=16 / chroma_me=1 / trellis=1 / 8x8dct=1 / cqm=0 / deadzone=21,11 / fast_pskip=1 / chroma_qp_offset=-2 / threads=6 / lookahead_threads=1 / sliced_threads=0 / nr=0 / decimate=1 / interlaced=0 / bluray_compat=0 / constrained_intra=0 / bframes=3 / b_pyramid=2 / b_adapt=1 / b_bias=0 / direct=1 / weightb=1 / open_gop=0 / weightp=1 / keyint=250 / keyint_min=25 / scenecut=40 / intra_refresh=0 / rc_lookahead=30 / rc=abr / mbtree=1 / bitrate=1050 / ratetol=1.0 / qcomp=0.60 / qpmin=0 / qpmax=69 / qpstep=4 / ip_ratio=1.40 / aq=1:1.00
Default                                  : Yes
Forced                                   : No
Audio #1
ID                                       : 2
Format                                   : AAC LC SBR
Format/Info                              : Advanced Audio Codec Low Complexity with Spectral Band Replication
Commercial name                          : HE-AAC
Format settings                          : Explicit
Codec ID                                 : A_AAC-2
Duration                                 : 43 min 54 s
Bit rate                                 : 128 kb/s
Channel(s)                               : 6 channels
Channel layout                           : C L R Ls Rs LFE
Sampling rate                            : 48.0 kHz
Frame rate                               : 23.438 FPS (2048 SPF)
Compression mode                         : Lossy
Stream size                              : 40.2 MiB (10%)
Title                                    : Hindi
Language                                 : English
Default                                  : No
Forced                                   : No
Audio #2
ID                                       : 3
Format                                   : AAC LC SBR
Format/Info                              : Advanced Audio Codec Low Complexity with Spectral Band Replication
Commercial name                          : HE-AAC
Format settings                          : Explicit
Codec ID                                 : A_AAC-2
Duration                                 : 43 min 54 s
Bit rate                                 : 128 kb/s
Channel(s)                               : 6 channels
Channel layout                           : C L R Ls Rs LFE
Sampling rate                            : 48.0 kHz
Frame rate                               : 23.438 FPS (2048 SPF)
Compression mode                         : Lossy
Stream size                              : 40.2 MiB (10%)
Title                                    : English
Language                                 : English
Default                                  : No
Forced                                   : No
Text #1
ID                                       : 4
Format                                   : UTF-8
Codec ID                                 : S_TEXT/UTF8
Codec ID/Info                            : UTF-8 Plain Text
Duration                                 : 42 min 32 s
Bit rate                                 : 57 b/s
Count of elements                        : 483
Stream size                              : 17.8 KiB (0%)
Title                                    : English
Language                                 : English
Default                                  : No
Forced                                   : No
Text #2
ID                                       : 5
Format                                   : UTF-8
Codec ID                                 : S_TEXT/UTF8
Codec ID/Info                            : UTF-8 Plain Text
Duration                                 : 42 min 32 s
Bit rate                                 : 57 b/s
Count of elements                        : 483
Stream size                              : 17.8 KiB (0%)
Title                                    : English
Language                                 : English
Default                                  : No
Forced                                   : No
Text #3
ID                                       : 6
Format                                   : UTF-8
Codec ID                                 : S_TEXT/UTF8
Codec ID/Info                            : UTF-8 Plain Text
Duration                                 : 42 min 27 s
Bit rate                                 : 46 b/s
Count of elements                        : 464
Stream size                              : 14.4 KiB (0%)
Title                                    : Croatian
Language                                 : English
Default                                  : No
Forced                                   : No
Text #4
ID                                       : 7
Format                                   : UTF-8
Codec ID                                 : S_TEXT/UTF8
Codec ID/Info                            : UTF-8 Plain Text
Duration                                 : 42 min 33 s
Bit rate                                 : 51 b/s
Count of elements                        : 476
Stream size                              : 16.0 KiB (0%)
Title                                    : Czech
Language                                 : English
Default                                  : No
Forced                                   : No
Text #5
ID                                       : 8
Format                                   : UTF-8
Codec ID                                 : S_TEXT/UTF8
Codec ID/Info                            : UTF-8 Plain Text
Duration                                 : 42 min 34 s
Bit rate                                 : 51 b/s
Count of elements                        : 428
Stream size                              : 16.1 KiB (0%)
Title                                    : Danish
Language                                 : English
Default                                  : No
Forced                                   : No
Text #6
ID                                       : 9
Format                                   : UTF-8
Codec ID                                 : S_TEXT/UTF8
Codec ID/Info                            : UTF-8 Plain Text
Duration                                 : 42 min 34 s
Bit rate                                 : 47 b/s
Count of elements                        : 444
Stream size                              : 14.9 KiB (0%)
Title                                    : Dutch
Language                                 : English
Default                                  : No
Forced                                   : No
Text #7
ID                                       : 10
Format                                   : UTF-8
Codec ID                                 : S_TEXT/UTF8
Codec ID/Info                            : UTF-8 Plain Text
Duration                                 : 42 min 28 s
Bit rate                                 : 50 b/s
Count of elements                        : 442
Stream size                              : 15.7 KiB (0%)
Title                                    : Finnish
Language                                 : English
Default                                  : No
Forced                                   : No
Text #8
ID                                       : 11
Format                                   : UTF-8
Codec ID                                 : S_TEXT/UTF8
Codec ID/Info                            : UTF-8 Plain Text
Duration                                 : 42 min 23 s
Bit rate                                 : 50 b/s
Count of elements                        : 470
Stream size                              : 15.6 KiB (0%)
Title                                    : French
Language                                 : English
Default                                  : No
Forced                                   : No
Text #9
ID                                       : 12
Format                                   : UTF-8
Codec ID                                 : S_TEXT/UTF8
Codec ID/Info                            : UTF-8 Plain Text
Duration                                 : 42 min 34 s
Bit rate                                 : 54 b/s
Count of elements                        : 467
Stream size                              : 17.1 KiB (0%)
Title                                    : German
Language                                 : English
Default                                  : No
Forced                                   : No
Text #10
ID                                       : 13
Format                                   : UTF-8
Codec ID                                 : S_TEXT/UTF8
Codec ID/Info                            : UTF-8 Plain Text
Duration                                 : 42 min 34 s
Bit rate                                 : 87 b/s
Count of elements                        : 467
Stream size                              : 27.2 KiB (0%)
Title                                    : Greek
Language                                 : English
Default                                  : No
Forced                                   : No
Text #11
ID                                       : 14
Format                                   : UTF-8
Codec ID                                 : S_TEXT/UTF8
Codec ID/Info                            : UTF-8 Plain Text
Duration                                 : 42 min 34 s
Bit rate                                 : 77 b/s
Count of elements                        : 467
Stream size                              : 24.3 KiB (0%)
Title                                    : Hebrew
Language                                 : English
Default                                  : No
Forced                                   : No
Text #12
ID                                       : 15
Format                                   : UTF-8
Codec ID                                 : S_TEXT/UTF8
Codec ID/Info                            : UTF-8 Plain Text
Duration                                 : 42 min 30 s
Bit rate                                 : 52 b/s
Count of elements                        : 459
Stream size                              : 16.4 KiB (0%)
Title                                    : Hungarian
Language                                 : English
Default                                  : No
Forced                                   : No
Text #13
ID                                       : 16
Format                                   : UTF-8
Codec ID                                 : S_TEXT/UTF8
Codec ID/Info                            : UTF-8 Plain Text
Duration                                 : 42 min 32 s
Bit rate                                 : 51 b/s
Count of elements                        : 462
Stream size                              : 16.1 KiB (0%)
Title                                    : Indonesian
Language                                 : English
Default                                  : No
Forced                                   : No
Text #14
ID                                       : 17
Format                                   : UTF-8
Codec ID                                 : S_TEXT/UTF8
Codec ID/Info                            : UTF-8 Plain Text
Duration                                 : 42 min 34 s
Bit rate                                 : 53 b/s
Count of elements                        : 472
Stream size                              : 16.5 KiB (0%)
Title                                    : Italian
Language                                 : English
Default                                  : No
Forced                                   : No
Text #15
ID                                       : 18
Format                                   : UTF-8
Codec ID                                 : S_TEXT/UTF8
Codec ID/Info                            : UTF-8 Plain Text
Duration                                 : 42 min 23 s
Bit rate                                 : 43 b/s
Count of elements                        : 460
Stream size                              : 13.5 KiB (0%)
Title                                    : Japanese
Language                                 : English
Default                                  : No
Forced                                   : No
Text #16
ID                                       : 19
Format                                   : UTF-8
Codec ID                                 : S_TEXT/UTF8
Codec ID/Info                            : UTF-8 Plain Text
Duration                                 : 42 min 34 s
Bit rate                                 : 56 b/s
Count of elements                        : 474
Stream size                              : 17.6 KiB (0%)
Title                                    : Korean
Language                                 : English
Default                                  : No
Forced                                   : No
Text #17
ID                                       : 20
Format                                   : UTF-8
Codec ID                                 : S_TEXT/UTF8
Codec ID/Info                            : UTF-8 Plain Text
Duration                                 : 42 min 34 s
Bit rate                                 : 52 b/s
Count of elements                        : 469
Stream size                              : 16.2 KiB (0%)
Title                                    : Malay
Language                                 : English
Default                                  : No
Forced                                   : No
Text #18
ID                                       : 21
Format                                   : UTF-8
Codec ID                                 : S_TEXT/UTF8
Codec ID/Info                            : UTF-8 Plain Text
Duration                                 : 42 min 34 s
Bit rate                                 : 48 b/s
Count of elements                        : 469
Stream size                              : 15.0 KiB (0%)
Title                                    : Norwegian Bokmal
Language                                 : English
Default                                  : No
Forced                                   : No
Text #19
ID                                       : 22
Format                                   : UTF-8
Codec ID                                 : S_TEXT/UTF8
Codec ID/Info                            : UTF-8 Plain Text
Duration                                 : 42 min 34 s
Bit rate                                 : 48 b/s
Count of elements                        : 461
Stream size                              : 15.1 KiB (0%)
Title                                    : Polish
Language                                 : English
Default                                  : No
Forced                                   : No
Text #20
ID                                       : 23
Format                                   : UTF-8
Codec ID                                 : S_TEXT/UTF8
Codec ID/Info                            : UTF-8 Plain Text
Duration                                 : 42 min 34 s
Bit rate                                 : 54 b/s
Count of elements                        : 468
Stream size                              : 16.9 KiB (0%)
Title                                    : Portuguese
Language                                 : English
Default                                  : No
Forced                                   : No
Text #21
ID                                       : 24
Format                                   : UTF-8
Codec ID                                 : S_TEXT/UTF8
Codec ID/Info                            : UTF-8 Plain Text
Duration                                 : 42 min 34 s
Bit rate                                 : 52 b/s
Count of elements                        : 464
Stream size                              : 16.3 KiB (0%)
Title                                    : Brazilian Portuguese
Language                                 : English
Default                                  : No
Forced                                   : No
Text #22
ID                                       : 25
Format                                   : UTF-8
Codec ID                                 : S_TEXT/UTF8
Codec ID/Info                            : UTF-8 Plain Text
Duration                                 : 42 min 34 s
Bit rate                                 : 52 b/s
Count of elements                        : 469
Stream size                              : 16.5 KiB (0%)
Title                                    : Romanian
Language                                 : English
Default                                  : No
Forced                                   : No
Text #23
ID                                       : 26
Format                                   : UTF-8
Codec ID                                 : S_TEXT/UTF8
Codec ID/Info                            : UTF-8 Plain Text
Duration                                 : 42 min 30 s
Bit rate                                 : 95 b/s
Count of elements                        : 472
Stream size                              : 29.8 KiB (0%)
Title                                    : Russian
Language                                 : English
Default                                  : No
Forced                                   : No
Text #24
ID                                       : 27
Format                                   : UTF-8
Codec ID                                 : S_TEXT/UTF8
Codec ID/Info                            : UTF-8 Plain Text
Duration                                 : 42 min 2 s
Bit rate                                 : 84 b/s
Count of elements                        : 546
Stream size                              : 26.1 KiB (0%)
Title                                    : European Spanish
Language                                 : English
Default                                  : No
Forced                                   : No
Text #25
ID                                       : 28
Format                                   : UTF-8
Codec ID                                 : S_TEXT/UTF8
Codec ID/Info                            : UTF-8 Plain Text
Duration                                 : 42 min 34 s
Bit rate                                 : 50 b/s
Count of elements                        : 459
Stream size                         

번역하기: 한국 한국어


<< 이 게시판에서 관련된 자료 목록 >>
 [구글검색] 구글에서 바다보아 검색 - 구글에서 토렌트를 검색하실 때에 검색어 뒤에 바다보아를 꼭 붙여서 검색하세요.     바다보아에서 광고중인 웹에 문제가 있다면 상단에 나와 있는 운영자 이메일로 연락 주십시오.     사용자님의 다운로드가 완료될 때까지 저희가 함께하겠습니다. 편안하고 즐거운 시간 되십시오.

웹하드 파일몽

  

  

IMFORMATION STORE

상단으로 가운데로 하단으로